#TITLE:THIS IS MY SUPER EURO-BEAT SONG;
#SUBTITLE:;
#ARTIST:DJ Potatoe;
#TITLETRANSLIT:;
#SUBTITLETRANSLIT:;
#ARTISTTRANSLIT:;
#CREDIT:;
#BANNER:;
#BACKGROUND:;
#LYRICSPATH:;
#CDTITLE:;
#MUSIC:Super Eurobeat.mp3;
#MUSICLENGTH:96.026;
#OFFSET:-0.060;
#SAMPLESTART:50.705;
#SAMPLELENGTH:12.000;
#SELECTABLE:YES;
#BPMS:0.000=170.000;
#STOPS:;
#BGCHANGES:;
#FIRSTBEAT:16.500;

#LASTBEAT:271.000;

#SONGFILENAME:Songs/ERICth The 3rd/Super Eurobeat/Super Eorubeat.sm;

#HASMUSIC:1;

#HASBANNER:0;


//---------------dance-single - MANIAC----------------
#NOTES:
     dance-single:
     MANIAC:
     hard:
     8:
     0.620,0.597,0.427,0.083,0.089,368.000,41.000,8.000,0.000,0.000:

0000
0000
0000
0000
,
0000
0000
0000
0000
,
0000
0000
0000
0000
,
0000
0000
0000
0000
,
0000
0100
0001
0010
0100
0010
0001
0000
,
0000
0100
1000
0010
0100
0010
1000
0000
,
0000
0010
0100
1000
0100
0010
0001
0000
,
1000
0000
0010
0000
1000
0010
1000
0010
0000
0000
0000
0000
0000
0000
0000
0000
,
0000
0010
0001
1000
0010
1000
0100
0000
,
0000
0010
1000
0001
0010
0001
0100
0000
,
0000
0010
0100
0001
0100
0010
1000
0000
,
0001
0000
0010
0000
0001
0010
0001
0010
0000
0000
0000
0000
0000
0000
0000
0000
,
1001
0000
0010
0001
1000
0000
1100
0000
,
0100
0010
0001
0010
0000
0100
0000
0100
,
0010
0001
0100
0000
2100
0000
0001
3001
,
0000
1000
0000
0010
0000
0101
0000
0000
,
0110
0010
0001
1000
0100
1000
0000
0001
,
0000
0000
0110
0000
0000
0000
1000
0000
0000
0001
0000
0000
1000
0000
0000
0000
,
0010
0000
0010
0000
1000
0100
1000
0100
0000
0000
0000
0000
0000
0000
0000
0000
,
0010
0000
0010
0000
0001
0100
0001
0100
0000
0000
0000
0000
0000
0000
0000
0000
,
1000
0000
0110
0000
0010
0001
0000
0010
,
0100
0000
0010
0001
0000
1000
0100
0010
,
0100
0000
1000
0000
0001
0100
0001
1000
,
0001
0000
0010
0000
0100
0010
0100
1000
,
0001
0000
0001
0000
0100
0010
1000
0001
,
0011
1100
0011
1100
,
0100
0000
0100
0000
0010
0001
0010
0001
0000
0000
0000
0000
0000
0000
0000
0000
,
0100
0000
0100
0000
1000
0100
1000
0100
0000
0000
0000
0000
0000
0000
0000
0000
,
0001
1000
0010
0100
0010
1000
0001
0010
,
0100
1000
0100
0010
0001
1000
0100
0010
,
0001
0100
1000
0100
1000
0001
0100
0010
,
1000
0001
1001
0010
1000
1001
0000
0000
,
0010
1000
0100
0010
0001
1000
0100
1000
,
0001
0100
0001
1000
0010
0100
0001
1000
,
0001
1000
0100
1000
0001
1000
0010
1000
,
0010
0010
0001
0010
0010
1000
0000
0000
,
0001
0010
0001
0000
0100
0010
0000
0000
,
0001
0010
0100
0010
0000
0110
0000
0000
,
1100
0000
0011
0000
0110
0010
0001
1001
,
0000
0000
1000
1000
1000
0000
0001
0001
,
1001
0110
1010
0101
,
1000
0010
0000
0001
0000
0002
0000
1003
,
0100
0010
0010
0000
0001
2000
0000
3001
,
0010
0000
0100
0100
0100
0000
0010
0010
,
0010
1000
0010
0000
0100
0010
0000
0000
,
1000
0010
0100
0010
0000
0110
0000
0000
,
1010
0000
0101
0000
0110
0100
1000
1001
,
0000
0000
1000
1000
1000
0000
0001
0001
,
1001
0110
0011
1100
,
0001
0010
0000
1000
0000
0002
0000
1003
,
0100
0010
0010
0000
0001
2000
0000
3001
,
0010
0000
0100
0100
0100
0000
0010
0010
,
0010
0001
0200
0000
0000
0000
0000
1300
,
0000
1000
0100
0010
0000
0010
0001
1000
,
0000
0100
0010
0001
0000
0001
1000
0010
,
0000
0010
1000
0100
0000
0100
1000
0000
,
2010
0010
0001
3010
,
0102
0100
1000
0103
,
1001
0000
0011
0000
1000
0010
1000
0000
,
0001
0010
0001
0000
0010
0100
0010
0000
,
0000
1000
0100
0010
0001
0010
0110
0000
,
0000
1000
0010
0100
0001
0100
0110
0000
,
0000
0010
1000
0001
0010
0001
1001
0000
,
0100
0000
0010
0000
1000
0001
1000
0001
0000
0000
0000
0000
0000
0000
0000
0000
,
0000
1000
0010
0100
0001
0100
0110
0000
,
0000
0001
0010
0100
1000
0100
0110
0000
,
0000
0001
1000
0001
1000
0001
1001
0000
,
0100
0000
1000
0000
0001
1000
0001
1000
0000
0000
0000
0000
0000
0000
0000
0000
,;

//---------------dance-single - ANOTHER----------------
#NOTES:
     dance-single:
     ANOTHER:
     medium:
     5:
     0.455,0.529,0.187,0.000,0.000,288.000,18.000,0.000,0.000,0.000:



0000
0000
0000
0000
,
0000
0000
0000
0000
,
0000
0000
0000
0000
,
0000
0000
0000
0000
,
0000
1000
0100
0010
0100
1000
0001
0000
,
0000
0100
0001
1000
0010
0100
0010
0000
,
0000
1000
0001
0010
0100
1000
0100
0000
,
0001
1000
0100
1000
0001
0000
0000
0000
,
0000
0010
0001
1000
0100
1000
0001
0000
,
0000
0010
0100
0010
1000
0001
0010
0000
,
0000
0001
1000
0100
0010
0100
1000
0000
,
0001
0100
0001
1000
0010
0000
0000
0000
,
0000
0001
1000
0100
,
0010
0001
1000
0100
0000
0000
0001
0000
,
1000
0000
0010
0000
0100
0010
0100
0010
,
0000
1000
0001
0000
,
0100
0010
0001
1000
,
0100
0000
0010
0000
0001
1000
0001
0100
,
0001
1000
0100
0000
,
0010
0001
1000
0000
,
0100
0000
1000
0000
0001
0100
0001
0000
,
1000
0000
0010
0100
0000
0001
0000
0000
,
0100
0000
0010
0000
1000
0100
0000
0000
,
0001
0001
1000
1000
,
0010
0000
0100
0000
0001
1000
0001
1000
,
0000
0100
0000
0010
0000
0000
0001
0000
,
0000
0000
0000
1000
,
0010
0000
0000
0001
,
1000
0000
0100
0000
0010
0001
0000
1000
,
0010
0000
0100
0001
0000
1000
0000
0000
,
0010
0000
0100
0000
0001
1000
0100
0010
,
0000
0001
1000
0001
,
0100
0000
0010
0000
1000
0000
0001
0010
,
0001
0000
1000
0010
0000
0100
0000
0000
,
0001
0000
0010
0000
0100
1000
0000
0001
,
0000
0100
0000
0000
,
1001
0100
0010
0001
,
1001
0010
0100
0001
,
1001
0000
0100
0000
0010
0100
0010
0100
,
0010
0001
1000
0010
,
0100
1001
0010
1001
,
0100
0010
0001
1000
,
0010
1010
0101
0010
,
1000
0100
0010
0001
,
0001
1000
0001
1000
,
0010
0100
0001
1000
,
0001
1000
0001
0110
,
1001
0010
0100
0001
,
0011
1100
0001
0010
,
0110
1001
0010
1010
,
0101
0001
1000
0100
,
0010
0000
0001
0000
1000
0001
1000
0000
,
0001
1000
0010
0100
,
0001
1000
0100
0000
0010
0000
0001
0000
,
1000
0000
0010
0100
0010
1000
0001
0000
,
0001
1000
0100
1001
,
1001
0100
0010
0001
,
1000
0000
0010
0000
0100
0010
1000
0000
,
0001
0100
0001
0010
,
0001
1000
0100
0000
0001
0000
0000
0000
,
0000
0010
1000
0100
0010
0000
0001
0000
,
1000
0000
0010
0000
0100
0001
0010
0000
,
0000
0100
1000
0010
0100
0001
0010
0000
,
0001
1000
0010
0100
0010
0000
0000
0000
,
0000
0001
1000
0100
0010
0100
1000
0000
,
0000
0001
0100
0010
1000
0010
0100
0000
,
0000
0001
1000
0010
0100
0010
0100
0000
,
0010
0100
0010
0100
0010
0000
0110
0000;

//---------------dance-single - BASIC----------------
#NOTES:
     dance-single:
     BASIC:
     easy:
     4:
     0.382,0.529,0.219,0.021,0.000,234.000,21.000,2.000,0.000,0.000:



0000
0000
0000
0000
,
0000
0000
0000
0000
,
0000
0000
0000
0000
,
0000
0000
0000
0000
,
0000
0001
0010
0000
0100
0000
0000
0000
,
0000
0010
1000
0000
0100
0000
0000
0000
,
0000
0001
0100
0000
0010
0000
0000
0000
,
1000
0001
0010
0000
,
0000
0100
1000
0000
0001
0000
0000
0000
,
0000
0010
0100
0000
0001
0000
0000
0000
,
0000
1000
0010
0000
0100
0000
0000
0000
,
0001
1000
1001
0000
,
0100
1000
0001
0100
,
0001
1000
0010
1000
,
0001
0010
0001
1000
,
0100
1000
0001
0100
,
0001
1000
0010
1000
,
0001
0010
0001
1000
,
0100
1000
0100
0000
0001
0000
0000
0000
,
0100
1000
0100
0000
0001
0000
0000
0000
,
0010
1000
0001
0010
,
0001
1000
0100
1000
,
0001
0100
0001
1000
,
0010
1000
0001
0010
,
0001
1000
0100
1000
,
0001
0100
0001
1000
,
0010
1000
0010
0000
1000
0000
0000
0000
,
0010
0001
0010
0000
0001
0000
0000
0000
,
1001
1001
0100
0010
,
0001
1000
0010
0100
,
0110
0110
0001
1000
,
0001
0000
0000
0000
,
1001
1001
0100
0010
,
0001
1000
0010
0100
,
0110
0110
1000
0000
,
0001
0000
0000
0000
,
1010
0010
0100
0001
,
0010
0100
1000
0001
,
0100
0001
1000
0001
,
2000
0010
0010
0010
,
0010
3000
0001
0000
0010
0000
0100
0000
,
1000
0001
0010
0100
,
1000
0001
0100
0001
,
1000
0110
1001
0110
,
1001
0001
1000
0100
,
0010
0001
1000
0001
,
0010
0001
1000
0001
0100
0001
1000
0000
,
0010
0100
0010
0000
,
0001
1000
0001
0000
1000
0001
1000
0000
,
0010
0100
0010
0000
0100
0010
0100
0000
,
1001
1001
0110
0110
,
1001
1001
1001
0000
,
0001
1000
0010
1000
,
0001
0100
0001
1000
,
0100
1000
0010
1000
,
0001
0010
0001
1000
,
0100
1000
0001
0100
,
0001
1000
0010
1000
,
0001
0010
0001
1000
,
0001
1000
0001
1000
0001
0000
0000
0000
,
0010
0000
0010
0000
,
1000
0000
1000
0000
,
0100
0000
0100
0000
,
0001
0000
0001
0000
,
0010
0000
0010
0000
,
0010
0000
0010
0000
,
0010
0000
0010
0000
,
0010
1000
0100
1000
0002
0000
0003
0000;
